《彩 -AYA- 完全版》[M3-23][Seele][同人音楽][附3BK][含例大祭6 版][TTA]

《彩 -AYA- 完全版》[M3-23][Seele][同人音楽][附3BK][含例大祭6 版][TTA]
  • 片  名  《彩 -AYA- 完全版》[M3-23][Seele][同人音楽][附3BK][含例大祭6 版][TTA]
  • 简  介  发行时间: 2009年05月05日对白语言: 日语文字语言: 日文
  • 类  别  动漫
  • 小  类  动漫周边


  • 详细介绍中文名: 彩 -AYA- 完全版资源格式: TTA版本: [M3-23][Seele][同人音楽][附3BK][含例大祭6 版]发行时间: 2009年05月05日地区: 日本对白语言: 日语文字语言: 日文简介: 【简介】
    M3-23版在例大祭6版本的基础上增加了点曲目.不过《煌 -キラメキ-》貌似被删掉了.
    -----------------------------------------------例大祭6分割线-----------------------------------------------
    【介绍】
    DISC ID:21044A04
    Seele:彩 -AYA-
    発行日:2009年03月08日
    ジャンル:東方Project
    備考:音楽CD
    指定:一般
    販売価格:420円(本体:400円+税:20円)
    東方オンリーイベント「例大祭」にて新作ミニアルバム「彩 -AYA-」をリリース致します。
    【制作】
    Compose: ベルネイジ / hal
    ゲストヴォーカル: 鷹兎 紫飴
    Illustrator: 日向 あずり
    【曲目】
    01. 神々が恋した幻想郷~降神~
    原曲:神々が恋した幻想卿
    作&編曲:hal
    02. ヤンメー節
    原曲:運命のダークサイド
    作&編曲:ベルネイジ
    03. 厄神様の手毬歌
    原曲:厄神さまの通り道
    作&編曲&詩:ベルネイジ  
    歌:鷹兎紫飴
    04. 煌 -キラメキ-
    東方風神録 彩-AYA- image
    作&編曲:深沢大樹
    【相关网站】
    http://www.seele.halfmoon.jp/02/
    -----------------------------------------------M3-23的分割线-----------------------------------------------
    【介绍】
    DISC ID:6D09D20A
    Seele:彩 -AYA- 完全版
    発行日:2009年05月05日
    ジャンル:東方Project
    備考:音楽CD
    指定:一般
    販売価格:800円
    さて、Seeleの新作「彩-AYA-」完全版が
    おかげさまで完売いたしました。
    スペースにて自分達の作品を手にとってくださった時に
    毎回楽しみにしています、次回も頑張ってください!と
    暖かい声をかけてくださる方もいて、Seele作品が少しでも役に立てているんだなと
    そう感じられることを心から嬉しく思います。
    これからも出来る限り皆様に喜んで頂ける作品を創っていけるよう努力しようと思います。
    どうぞ、今後ともSeeleをよろしくお願いいたします。
    スペースに足を運んでくださった方々、近隣のスペースの方々
    作品に携わって下さった方々、本当にありがとうございました!
    【制作】
    Compose: hal ベルネイジ ひときり 朔月
    ゲストヴォーカル: 鷹兎 紫飴
    Illustrator: 日向あずり
    【曲目】
    1.神々が恋した幻想郷 ~降神~/hal
    原曲.神々が恋した幻想郷
    2.ヤンメー節/ベルネイジ
    原曲.運命のダークサイド
    3.厄神様の毛鞠歌/ベルネイジ・鷹兎 紫飴(歌)
    原曲.厄神さまの通り道
    4.祭神は眠る/ひときり
    原曲.麓の神社
    5.諏訪のカエル道/ひときり
     原曲.明日ハレの日、ケの昨日
    6.恵/深沢 大樹
    風神録イメージ曲
    7.悪神の苛立ち-reset-/ベルネイジ
    原曲.神さびた古戦場
    8.悠久の郷/朔月
    原曲.稲田姫様に叱られるから
    9.1000年の記憶/hal
    原曲.妖怪の山
    10.Beyond the Ocean of Clouds/鐘下 楽
    風神録イメージ曲
    【相关网站】
    http://www.seele.halfmoon.jp/02/
  • 《彩 -AYA- 完全版》[M3-23][Seele][同人音楽][附3BK][含例大祭6 版][TTA]_large

精选评论

REM GENRE Game
REM DATE 2009
REM DISCID 21044A04
REM COMMENT "ExactAudioCopy v0.99pb4"
PERFORMER "Seele"
TITLE "彩 -AYA-"
FILE "彩 -AYA-.wav" WAVE
TRACK 01 AUDIO
TITLE "神々が恋した幻想郷 ~降神~"
PERFORMER "hal"
INDEX 01 00:00:00
TRACK 02 AUDIO
TITLE "ヤンメー節"
PERFORMER "ベルネイジ"
INDEX 00 06:02:05
INDEX 01 06:02:08
TRACK 03 AUDIO
TITLE "厄神様の手毬歌"
PERFORMER "鷹兎 紫飴"
INDEX 00 08:57:72
INDEX 01 08:58:00
TRACK 04 AUDIO
TITLE "煌 -キラメキ-"
PERFORMER "深沢 大樹"
INDEX 00 11:58:35
INDEX 01 11:58:38
楼主抢沙发啦~
哎,例大祭属于哪类的?载过几张,听了以后觉得不太喜欢哈,仅仅不合我口味。不知这个如何?
谢谢LZ封面太华丽了
真萌


分类我是不太清楚了.
可以自行搜索扫雷报告.
http://bthushiringo.blogbus.com/logs/37628469.html
停源公告
时间:2009-04-28 上午9:00 到2009-04-30 下午5:00
原因:学校组织学农.

希望各位谅解.
不知道这又是唱的哪出……
照例收走~
谢谢LZ
- -学校....组织...学农= =那我等几天- -


好吧.回来了.可以下载了.
...开下...速度还不错- -
封面好美啊
东方的,不可不听啊
两张有什么不一样的地方呢