大山百合香(Ohyama Yurika) -《夏のしずく》单曲(PV附)[FLAC]

大山百合香(Ohyama Yurika) -《夏のしずく》单曲(PV附)[FLAC]
  • 片  名  大山百合香(Ohyama Yurika) -《夏のしずく》单曲(PV附)[FLAC]
  • 简  介  发行时间: 2007年07月25日地区: 日本语言: 日语
  • 类  别  音乐
  • 小  类  日韩音乐


  • 详细介绍专辑中文名: 夏のしずく歌手: 大山百合香(Ohyama Yurika)版本: 单曲(PV附)[FLAC]发行时间: 2007年07月25日地区: 日本语言: 日语简介:
    专辑介绍:
    这是大山百合香的第六张单曲,发行于去年的夏日。
    正如标题一样,听着这首宛如山泉流淌的小曲,你仿佛可以惬意地去回忆所有发生在夏日的美好点滴,YURIKA的声线给人一种毫无压力的感觉,可以完全放松地去聆听,很喜欢这种感觉,即使窗外炎热依旧,聆听着她的你依然可以清凉舒馨。
    第二曲是NHK卫星HI VISION节目《関口知宏の中国鉄道大纪行》的主题曲,提供曲子是创作过很多大热曲目的松本俊明,比如为MISIA创作《Everything》等等。
    这个夏天,大山百合香为你送上一阵清凉的夏日凉风~
    PV拍得很美,结合了tie的那部动画的画面,貌似是关于河童的动画,很感人看上去,特此更新,是为记。
    大山百合香、待望の6thシングル「夏のしずく」が完成!7月28日全国ロードショー、映画『河童のクゥと夏休み』の主题歌!子供から大人まで楽しませてくれる感动エンタテインメント、映画『クレヨンしんちゃん』シリーズで知られる原恵一监督が异例の歳月をかけた入魂の一作。楽曲はUAの「情热」等のヒット曲でも知られる朝本浩文が作り上げた切ない胸を打つメロディに、作词は山本成美が映画に触発された瑞々しい言叶の欠片を纺いで行きます。C/Wには4月からスタートした、NHK卫星ハイビジョン『関口知宏の中国鉄道大纪行』のテーマ曲「光あるもの」を収録。俳优・関口知宏が中国の鉄道を最长ルートで巡る壮大な旅を放送するというビッグ・プロジェクト!そんな関口知宏の旅を応援する番组テーマ曲に、MISIA「Everything」の作曲者として知られ、数々の大ヒット曲を手掛ける世界のコンポーザー/ピアニスト、松本俊明が手掛けた线路の响きを彷彿させる三拍子のリズムに乗せた美しくも壮大なメロディ!この夏、大山百合香が岛を吹き抜ける凉しげな风を身にまとい、日本中のあらゆる世代に切ないあの夏の思い出をとどけます!
    TMJ❀SAKURA FM夏日清凉推荐
  • 大山百合香(Ohyama Yurika) -《夏のしずく》单曲(PV附)[FLAC]_large

精选评论

CUE如下:

PERFORMER "大山百合香"
TITLE "夏のしずく"
FILE "大山百合香(Ohyama.Yurika).-.[夏のしずく].单曲.(FLAC).flac" WAVE
TRACK 01 AUDIO
TITLE "夏のしずく"
INDEX 01 00:00:00
TRACK 02 AUDIO
TITLE "光あるもの"
INDEX 00 04:33:74
INDEX 01 04:35:34
TRACK 03 AUDIO
TITLE "夏のしずく (Instrumental)"
INDEX 00 08:25:08
INDEX 01 08:28:23
TRACK 04 AUDIO
TITLE "光あるもの (Instrumental)"
INDEX 00 13:02:22
INDEX 01 13:03:57
感谢楼主,哈哈,算沙发不。
大山百合香(Ohyama.Yurika).-.[夏のしずく].单曲.(FLAC).flac 详情 109.1MB
大山百合香(Ohyama.Yurika).-.[夏のしずく].单曲.(FLAC).cue 详情 445B
全选 109.1MB
这首单曲不错的
一直都很喜欢她的声音,她的音乐也是自然系的
呵呵, 是新東西嗎, 沒聽過她呢, 回家才下.
不新了,去年夏天的单曲,呵呵,最近在做夏日清凉推荐系列,这是第二弹~
喜欢这个歌手~~很好听的说~~喜欢啊~~
8L的同学,是您儿子的照片吗?
听听看~没听过她的歌呢.....
楼主由mink转到她了哦... 没听过她的歌呀..
额,不是转,对mink的爱不变,只是夏天到了,发一些清凉的歌曲而已~呵呵
大山百合香(Ohyama.Yurika).-.[夏のしずく].单曲.(FLAC).flac 详情 109.1MB
大山百合香(Ohyama.Yurika).-.[夏のしずく].单曲.(FLAC).cue 详情 445B
大山百合香(Ohyama.Yurika).-.[夏のしずく].单曲.(PV).avi 详情 89.3MB
全选 198.4MB
听了她唱的 小さな恋のうた(求婚大作战) 才知道有这个人......

不关心 日语歌手

但是为了 求婚大作战 来顶下