前任布拉福德夫人

前任布拉福德夫人
  • 片  名  前任布拉福德夫人
  • 简  介  无
  • 类  别  电影
  • 小  类  欧美


  • 详细介绍


    转载请注明

    ◎译  名 前任布拉福德夫人
    ◎片  名 The Ex-Mrs. Bradford
    ◎年  代 1936
    ◎国  家 美国
    ◎类  别 喜剧/神秘/爱情
    ◎语  言 英语
    ◎字  幕 N/A
    ◎IMDB评分 6.9/10 (518 votes)
    ◎IMDB链接 http://www.imdb.com/title/tt0027593/
    ◎文件格式 X264 + AC3
    ◎视频尺寸 640 x 480
    ◎文件大小 1CD 50 x 15MB
    ◎片  长 81 Mins
    ◎导  演 斯蒂芬·罗伯斯 Stephen Roberts
    ◎主  演 
    William Powell ... Dr. Lawrence Bradford
    Jean Arthur ... Paula Bradford
    James Gleason ... Inspector Corrigan
    Eric Blore ... Stokes, Bradford&39;s Receptionist
    Grant Mitchell ... John Summers, Luxury&39;Brien-Moore ... Mrs. Summers
    Ralph Morgan ... Leroy Hutchins, Warcloud&39;Brad&39;Escape from the Island') gebaut am Sep 5 2010 10:30:51
    Writing library : libebml v1.0.0 + libmatroska v1.0.0

    Video
    ID : 1
    Format : AVC
    Format/Info : Advanced Video Codec
    Format profile : High@L3.0
    Format settings, CABAC : Yes
    Format settings, ReFrames : 4 frames
    Format settings, GOP : M=4, N=16
    Codec ID : V_MPEG4/ISO/AVC
    Duration : 1h 21mn
    Bit rate : 1 005 Kbps
    Width : 640 pixels
    Height : 480 pixels
    Display aspect ratio : 4:3
    Frame rate : 23.976 fps
    Color space : YUV
    Chroma subsampling : 4:2:0
    Bit depth : 8 bits
    Scan type : Progressive
    Bits/(Pixel*Frame) : 0.136
    Stream size : 573 MiB (82%)
    Writing library : x264 core 107 r1745 4785e8e
    Encoding settings : cabac=1 / ref=3 / deblock=1:-1:-1 / analyse=0x3:0x113 / me=hex / subme=7 / psy=1 / psy_rd=1.00:0.15 / mixed_ref=1 / me_range=16 / chroma_me=1 / trellis=1 / 8x8dct=1 / cqm=0 / deadzone=21,11 / fast_pskip=1 / chroma_qp_offset=-3 / threads=3 / sliced_threads=0 / nr=0 / decimate=1 / interlaced=0 / constrained_intra=0 / bframes=3 / b_pyramid=2 / b_adapt=1 / b_bias=0 / direct=1 / weightb=1 / open_gop=0 / weightp=2 / keyint=250 / keyint_min=23 / scenecut=40 / intra_refresh=0 / rc_lookahead=40 / rc=2pass / mbtree=1 / bitrate=1005 / ratetol=1.0 / qcomp=0.60 / qpmin=10 / qpmax=51 / qpstep=4 / cplxblur=20.0 / qblur=0.5 / ip_ratio=1.40 / aq=1:1.00

    Audio
    ID : 2
    Format : AC-3
    Format/Info : Audio Coding 3
    Mode extension : CM (complete main)
    Codec ID : A_AC3
    Duration : 1h 21mn
    Bit rate mode : Constant
    Bit rate : 192 Kbps
    Channel(s) : 2 channels
    Channel positions : Front: L R
    Sampling rate : 48.0 KHz
    Bit depth : 16 bits
    Compression mode : Lossy
    Stream size : 112 MiB (16%)
    Language : English

    Menu
    00:00:00.000 : en:Chapter 1
    00:10:00.000 : en:Chapter 2
    00:20:00.000 : en:Chapter 3
    00:30:00.000 : en:Chapter 4
    00:40:00.000 : en:Chapter 5
    00:50:00.000 : en:Chapter 6
    01:00:00.000 : en:Chapter 7
    01:10:00.000
  • 前任布拉福德夫人_large

精选评论

还没人评论呢^^~赶紧抢沙发吧!

相关资源