張學友 -《張學友友情對唱》[APE]

張學友 -《張學友友情對唱》[APE]
  • 片  名  張學友 -《張學友友情對唱》[APE]
  • 简  介  发行时间: 2002年地区: 大陆语言: 普通话
  • 类  别  音乐
  • 小  类  华语音乐


  • 详细介绍专辑中文名: 張學友友情對唱歌手: 張學友资源格式: APE发行时间: 2002年地区: 大陆语言: 普通话简介:
    内容简介
    自己买的正版CD抓轨做的APE,音质保证.由于没有扫描仪,只好找个图片代替.第一次制作献给VC希望大家喜欢.这个专辑里面都是学友和别人的和唱.
      84年参加“全港十八区业余唱大赛”,凭一曲《大地恩情》由万多名参赛者中脱颖而出,勇夺冠军。宝丽金唱 片公司对张学友的歌艺欣赏,与之签约为旗下歌手,全力推荐这位乐坛明日之星。终使得成为乐坛经久不衰的“歌神”。
      张学友是一个做事很认真的人,每件事都希望能做得更好一点。从1984年勇夺香港电台的十八区业余歌唱比赛冠军开始,张学友以其雄厚的实力在歌坛创造无数佳绩。在1999年更是迎来其歌唱事业的辉煌,包括荣膺世界十大杰出青年称号,并成为一知名全球演、歌俱佳的艺人,有华语的地方必有张学友的歌。
    由于修改.ED2K链接已改变请下载的朋友重新点击下载.
  • 張學友 -《張學友友情對唱》[APE]_large

精选评论

首首經典啊
下完了,cue文件有误,谁能帮忙再做一个上来,要不无法分轨
可以分轨,我用的Medieval cue v1。2

PERFORMER "張學友"
TITLE "張學友友情對唱"
FILE "張學友.-.[張學友友情對唱].专辑.(ape).ape.ape" WAVE
TRACK 01 AUDIO
TITLE "长流不息"
PERFORMER "張學友"
FLAGS DCP
INDEX 01 00:00:00
TRACK 02 AUDIO
TITLE "烟花句"
PERFORMER "張學友"
FLAGS DCP
INDEX 00 03:40:09
INDEX 01 03:44:09
TRACK 03 AUDIO
TITLE "只有情永在"
PERFORMER "張學友"
FLAGS DCP
INDEX 00 08:21:41
INDEX 01 08:25:41
TRACK 04 AUDIO
TITLE "你最珍贵"
PERFORMER "張學友"
FLAGS DCP
INDEX 00 12:12:13
INDEX 01 12:16:13
TRACK 05 AUDIO
TITLE "非常夏日"
PERFORMER "張學友"
FLAGS DCP
INDEX 00 17:02:18
INDEX 01 17:06:18
TRACK 06 AUDIO
TITLE "相思风雨中"
PERFORMER "張學友"
FLAGS DCP
INDEX 00 21:26:71
INDEX 01 21:30:71
TRACK 07 AUDIO
TITLE "爱和承诺"
PERFORMER "張學友"
FLAGS DCP
INDEX 00 25:42:62
INDEX 01 25:46:62
TRACK 08 AUDIO
TITLE "左右为难"
PERFORMER "張學友"
FLAGS DCP
INDEX 00 31:11:60
INDEX 01 31:15:60
TRACK 09 AUDIO
TITLE "甲乙丙丁"
PERFORMER "張學友"
FLAGS DCP
INDEX 00 35:27:58
INDEX 01 35:31:58
TRACK 10 AUDIO
TITLE "似曾相识"
PERFORMER "張學友"
FLAGS DCP
INDEX 00 39:31:51
INDEX 01 39:35:51
TRACK 11 AUDIO
TITLE "问"
PERFORMER "張學友"
FLAGS DCP
INDEX 00 43:31:65
INDEX 01 43:35:65
TRACK 12 AUDIO
TITLE "情浓半生"
PERFORMER "張學友"
FLAGS DCP
INDEX 00 47:14:10
INDEX 01 47:18:10
TRACK 13 AUDIO
TITLE "留住秋色"
PERFORMER "張學友"
FLAGS DCP
INDEX 00 51:54:19
INDEX 01 51:58:19
TRACK 14 AUDIO
TITLE "夜半轻私语"
PERFORMER "張學友"
FLAGS DCP
INDEX 00 54:58:53
INDEX 01 55:02:53
TRACK 15 AUDIO
TITLE "一对寂寞心"
PERFORMER "張學友"
FLAGS DCP
INDEX 00 58:21:35
INDEX 01 58:25:35
cue文件有误~~~!要怎么搞好啊?
感謝辛苦整理分享
感謝辛苦整理分享 收下了,多谢
我也是无法分轨啊。
谢谢楼主!!
PERFORMER "張學友"
TITLE "張學友友情對唱"
FILE "張學友.-.[張學友友情對唱].专辑.(ape).ape" WAVE
TRACK 01 AUDIO
TITLE "长流不息"
PERFORMER "張學友"
FLAGS DCP
INDEX 01 00:00:00
TRACK 02 AUDIO
TITLE "烟花句"
PERFORMER "張學友"
FLAGS DCP
INDEX 00 03:40:09
INDEX 01 03:44:09
TRACK 03 AUDIO
TITLE "只有情永在"
PERFORMER "張學友"
FLAGS DCP
INDEX 00 08:21:41
INDEX 01 08:25:41
TRACK 04 AUDIO
TITLE "你最珍贵"
PERFORMER "張學友"
FLAGS DCP
INDEX 00 12:12:13
INDEX 01 12:16:13
TRACK 05 AUDIO
TITLE "非常夏日"
PERFORMER "張學友"
FLAGS DCP
INDEX 00 17:02:18
INDEX 01 17:06:18
TRACK 06 AUDIO
TITLE "相思风雨中"
PERFORMER "張學友"
FLAGS DCP
INDEX 00 21:26:71
INDEX 01 21:30:71
TRACK 07 AUDIO
TITLE "爱和承诺"
PERFORMER "張學友"
FLAGS DCP
INDEX 00 25:42:62
INDEX 01 25:46:62
TRACK 08 AUDIO
TITLE "左右为难"
PERFORMER "張學友"
FLAGS DCP
INDEX 00 31:11:60
INDEX 01 31:15:60
TRACK 09 AUDIO
TITLE "甲乙丙丁"
PERFORMER "張學友"
FLAGS DCP
INDEX 00 35:27:58
INDEX 01 35:31:58
TRACK 10 AUDIO
TITLE "似曾相识"
PERFORMER "張學友"
FLAGS DCP
INDEX 00 39:31:51
INDEX 01 39:35:51
TRACK 11 AUDIO
TITLE "问"
PERFORMER "張學友"
FLAGS DCP
INDEX 00 43:31:65
INDEX 01 43:35:65
TRACK 12 AUDIO
TITLE "情浓半生"
PERFORMER "張學友"
FLAGS DCP
INDEX 00 47:14:10
INDEX 01 47:18:10
TRACK 13 AUDIO
TITLE "留住秋色"
PERFORMER "張學友"
FLAGS DCP
INDEX 00 51:54:19
INDEX 01 51:58:19
TRACK 14 AUDIO
TITLE "夜半轻私语"
PERFORMER "張學友"
FLAGS DCP
INDEX 00 54:58:53
INDEX 01 55:02:53
TRACK 15 AUDIO
TITLE "一对寂寞心"
PERFORMER "張學友"
FLAGS DCP
INDEX 00 58:21:35
INDEX 01 58:25:35
呵呵,网上搜索了下,做到了!办法如下:
用文本程序打开那个CUE格式的文件,然后把里面的东西全部删除,再复制上面我发的一个帖子的内容即可。
原来是文件第三行的文件名不符合那个APE文件的名称,3楼的帖子中,第三行的名称也不对,多了个APE。
呵呵,试试!
有几首爆音
下过的麻烦说下音质好不好谢谢!