张信哲 -《到处留情》[APE]

张信哲 -《到处留情》[APE]
  • 片  名  张信哲 -《到处留情》[APE]
  • 简  介  发行时间: 1998年07月地区: 香港语言: 粤语
  • 类  别  音乐
  • 小  类  华语音乐


  • 详细介绍专辑中文名: 到处留情歌手: 张信哲资源格式: APE发行时间: 1998年07月地区: 香港语言: 粤语简介:
    专辑介绍:
    十二号,漫步加洲的果园
    十六号,沐浴九州的温泉
    二十号,大笨钟的阴影前
    二十六号,复活岛的古迹前
    张信哲带我们走遍了世界,也走过了岁月,带给我们欢乐,也与我们一同伤感。在情感的国度里,作为一个永恒的歌者,让我们记住这个名字——张信哲
    阿哲加入 SONY 后的第一张粤语唱片,似乎没有得到大家的重视,和以前的粤语专辑一样,总体感觉不如国语专辑。
  • 张信哲 -《到处留情》[APE]_large

精选评论

第六首音轨出错,怎么没有人提意见?
06. 直到明天 不行 - -
放着一会儿就提示出错,《直到明天》怎么回事?希望楼主能否解决一下!衷心感谢!!!!!!!!!!!!!!!!
原文件可以听,但是cue文件好像就不行了,是不是cue文件的事呀
虽然有一首不能听,但是还是要支持一下
PERFORMER "张信哲"
TITLE "到处留情"
FILE "张信哲.-.[到处留情].专辑.(ape).ape" WAVE
TRACK 01 AUDIO
TITLE "多心"
INDEX 01 00:00:00
TRACK 02 AUDIO
TITLE "不知如何是好"
INDEX 01 04:09:35
TRACK 03 AUDIO
TITLE "忘掉了星期天"
INDEX 01 07:52:33
TRACK 04 AUDIO
TITLE "憎你"
INDEX 01 12:34:47
TRACK 05 AUDIO
TITLE "联想"
INDEX 01 17:35:04
TRACK 06 AUDIO
TITLE "直到明天"
INDEX 01 22:08:31
TRACK 07 AUDIO
TITLE "到处留情"
INDEX 01 26:34:69
TRACK 08 AUDIO
TITLE "一周运程"
INDEX 01 30:05:39
TRACK 09 AUDIO
TITLE "别祝我愉快"
INDEX 01 34:04:09
TRACK 10 AUDIO
TITLE "夜是"
INDEX 01 38:26:70
TRACK 11 AUDIO
TITLE "下雪边界"
INDEX 01 42:52:30
TRACK 12 AUDIO
TITLE "多心REMIX"
PERFORMER "张信哲"
INDEX 01 47:37:10
修改后,没问题了
感谢楼主供源~

感谢楼上朋友提供CUE~

哲谜请加QQ:4682902交流~
你们都说能听~为什么我的下的源文件就不能听~
是能听,不过第六首直到明天,到55秒的时候,文件坏,跳过当然可听,不过不完整,有没有朋友 ,有完整的这张专辑,谢谢
替换了CUE之后 还是第六首有问题。。
有哪位好心人能上传个 直到明天 的无损格式吗? 多谢了!

请问:这个专辑有没有翻唱的以前的国语歌,这样更能让人记住。

回忆中的卡带版没有