Carpenters -《Perform Carpenter》[APE]

Carpenters -《Perform Carpenter》[APE]
  • 片  名  Carpenters -《Perform Carpenter》[APE]
  • 简  介  音乐风格: 流行发行时间: 2003年地区: 美国语言: 英语
  • 类  别  音乐
  • 小  类  欧美音乐


  • 详细介绍简介: 发行公司:A M Records, Inc.
    专辑介绍:
    卡朋特乐队(The Carpenters)是美国歌星理查德·卡朋特和卡伦·卡朋特兄妹二人组成的演唱组合,1970年代和1980年代初期风靡一时。卡朋特兄妹于1965年开始组织乐队,1969年11月15日,卡朋特乐队的单曲《Close to You》(靠近你)一举走红,其后,他们在整个1970年代大获成功。《Yesterday Once More》(昨日重现)、《Top of the World》(世界之颠)、《Please Mr. Postman》(请等一下,邮差先生)等歌曲广为人知,成为无数美国青年的偶像,尼克松总统称卡朋特兄妹是最出色的美国青年。1983年2月4日,年仅32岁的卡伦·卡朋特因严重神经性厌食症而突然去世,卡朋特乐队随之告终。
    Karen Carpenter(卡伦·卡朋特)与她的哥哥Richard Carpenter(理查德·卡朋特)一起以独树一帜的 Soft Rock风格享誉美国歌坛。她的歌声具有一种以柔克刚的穿透力,情深意厚;她的台风朴素,决无当今的大小歌星们哗众取宠的装束和画蛇添足的舞步,完全靠嗓音征服听众。卡伦·卡朋特嗓音优美,演唱亲切自然,略带伤感,由于运用了多轨录音技术,因此他们的唱片无论在艺术上或技术上都非常成功,是当代流行音乐的精品。
    本张专辑与其说是Carpenters的一张专辑,倒不如说是Carpenters的精选集。但与大多数精选不一样之处在于本专辑的很多歌曲都是不为人知的冷门歌曲,因此这对Carpenters的歌迷来讲应该是不错的珍藏。
  • Carpenters -《Perform Carpenter》[APE]_large

精选评论

这是一张原版美版碟片。电驴上没有这些歌曲,因为是自己珍藏碟片而不是网上下载,所以能保证音质。就我现有下载的Carpenters的APE而言,能比得上我这张音质的碟片应该没有几张。我就纳闷了:“如果是Carpenters原盘,为什么电驴上众多Carpenters的APE音质都不甚理想?所以我发这个资源既是向Carpenters致敬;又是为知音者推荐真正的Carpenters的声音。Carpenters如同中国的邓丽君一样,能婉约、细腻的把平淡、简单的旋律诠释的如此生动。没有太多的技巧和花哨,只有质朴平凡的用心演绎。她们用美妙的歌声让人们知道了什么是真正的音乐,感谢她们带给人们欢笑和回忆,愿她们在天国一路走好!

CUE文件

PERFORMER "Carpenters"
TITLE "Perform Carpenter"
FILE "Carpenters.-.[Perform Carpenter].专辑.(ape).ape" WAVE
TRACK 01 AUDIO
TITLE "Top Of The World"
PERFORMER "Carpenters"
INDEX 01 00:00:00
TRACK 02 AUDIO
TITLE "Maybe It's You"
PERFORMER "Carpenters"
INDEX 01 03:02:50
TRACK 03 AUDIO
TITLE "Crystal Lullaby"
PERFORMER "Carpenters"
INDEX 00 06:05:17
INDEX 01 06:05:25
TRACK 04 AUDIO
TITLE "I Need To Be In Love "
PERFORMER "Carpenters"
INDEX 01 10:01:27
TRACK 05 AUDIO
TITLE "Sandy"
PERFORMER "Carpenters"
INDEX 00 13:49:47
INDEX 01 13:50:27
TRACK 06 AUDIO
TITLE "Mr. Guder"
PERFORMER "Carpenters"
INDEX 00 17:30:15
INDEX 01 17:33:17
TRACK 07 AUDIO
TITLE "All Of My Life"
PERFORMER "Carpenters"
INDEX 00 20:54:07
INDEX 01 20:55:17
TRACK 08 AUDIO
TITLE "Yesterday Once More "
PERFORMER "Carpenters"
INDEX 00 23:57:30
INDEX 01 23:58:30
TRACK 09 AUDIO
TITLE "One Love"
PERFORMER "Carpenters"
INDEX 00 27:56:02
INDEX 01 27:56:55
TRACK 10 AUDIO
TITLE "Those Good Old Dreams"
PERFORMER "Carpenters"
INDEX 00 31:20:42
INDEX 01 31:21:45
TRACK 11 AUDIO
TITLE "Because We Are In Love (The Wedding Song)"
PERFORMER "Carpenters"
INDEX 00 35:35:05
INDEX 01 35:35:20
TRACK 12 AUDIO
TITLE "Only Yesterday"
PERFORMER "Carpenters"
INDEX 00 40:36:40
INDEX 01 40:38:17
TRACK 13 AUDIO
TITLE "Eve"
PERFORMER "Carpenters"
INDEX 00 44:36:10
INDEX 01 44:37:27
TRACK 14 AUDIO
TITLE "At The End Of A Song"
PERFORMER "Carpenters"
INDEX 00 47:30:15
INDEX 01 47:31:07
TRACK 15 AUDIO
TITLE "Goodbye to Love"
PERFORMER "Carpenters"
INDEX 01 51:13:57
TRACK 16 AUDIO
TITLE "Look To Your Dreams"
PERFORMER "Carpenters"
INDEX 00 55:10:30
INDEX 01 55:11:65
TRACK 17 AUDIO
TITLE "Karen's Theme"
PERFORMER "Carpenters"
INDEX 00 60:23:67
INDEX 01 60:25:32
TRACK 18 AUDIO
TITLE "Merry Christmas,Darling"
PERFORMER "Carpenters"
INDEX 00 63:06:62
INDEX 01 63:26:30
很冷门吗,热门的几首好像都有
很多人应该是从Yesterday Once More开始喜欢英文流行歌吧。这么多年过去了,第一次听到这歌的感动还是那么熟悉。
不全是冷门啊,好多都是每张精选里必选的嘛……
既然是精选,肯定有代表作的热门歌曲,但大多数歌很多精选没有,而且不曾听说过。如:Crystal Lullaby,Sandy,Look To Your Dreams,Merry Christmas,Darling,One Love等
谢谢楼主
看来音质不错 有图有log 支持

感谢楼主分享
感谢楼主的真诚
如果我没有记错,这是哥哥Richard Carpenter在Karen逝世20周年特别灌录的钢琴曲唱片。当年一向Karen唱歌,Richard只是钢琴伴奏,偶然和音。如今Richard精选当年金曲,重新编曲,全新演绎。注意,Richard偶然会开口喔。
木匠兄妹当年歌迷听到老歌以柔雅旋韵重现,会深深感动而流泪。我……就是其中之一。
喜欢我发的资源的朋友,欢迎下载我的其它资源。(包括未加精的)保证音质,帮忙加速哈!请多多提出意见,毕竟“大家好才是真的好”。
= = 下载的好辛苦啊
因为小区宽带加上发源较多,所以有点慢。请耐心等待。前阵子我发的“张立基”“崔苔菁”也有人反映同样的问题,多等几天就好了。这几天“邓丽君”专辑已经能下载了,这张恐要等等。下载完的朋友请帮忙分流,多提提意见。也希望多下载我的其它资源(尤其是“未加精”资源),帮忙加速哈