华纳 -《华纳白金经典全套 CD4》APE[APE]

华纳 -《华纳白金经典全套 CD4》APE[APE]
  • 片  名  华纳 -《华纳白金经典全套 CD4》APE[APE]
  • 简  介  地区: 大陆,香港语言: 普通话,粤语
  • 类  别  音乐
  • 小  类  华语音乐


  • 详细介绍专辑中文名: 华纳白金经典全套 CD4歌手: 华纳资源格式: APE版本: APE地区: 大陆,香港语言: 普通话,粤语简介:
    专辑介绍:
    歌手有郭富城,郑秀文,叶倩文,林子祥,王杰,陈百强,林忆莲,黄子华,胡诺言,杜德伟,Beyond,蔡琴,曾路德,杜丽莎,刘锡明,吕方,李伟崧,太极,杜丽莎,陈迪匡,何婉盈,曾航生,邓健明,苏芮等~
    其中我最喜欢的是王杰的《几分伤心几分痴》,他就是《一场游戏一场梦》的粤语,别有一番味道,令外还有一些很难找的老歌,如陈迪匡的《伤心的小鹦鹉》,个人感觉比现在郑中基的翻唱更有FEEL(这里没有任何贬低郑中基的意思,其实我也挺喜欢他的),特别是现在的电子合成的低成本产品和哪个纯手工打造的伴奏曲跟本不能比哦~慢慢细听就知道Paul一直所批判现在的制作人的马虎是那么的有意义了
  • 华纳 -《华纳白金经典全套 CD4》APE[APE]_large

精选评论

楼主还能供源吗?来晚了:-(
PERFORMER "华纳群星"
TITLE "[华纳白金经典全套"
FILE "华纳.-.[华纳白金经典全套.CD4].专辑.(APE).ape" WAVE
TRACK 01 AUDIO
TITLE "依然"
PERFORMER "林忆莲"
FLAGS DCP
INDEX 01 00:00:00
TRACK 02 AUDIO
TITLE "人在风雨中"
PERFORMER "王杰"
FLAGS DCP
INDEX 00 04:58:45
INDEX 01 05:00:45
TRACK 03 AUDIO
TITLE "珍重"
PERFORMER "叶倩文"
FLAGS DCP
INDEX 00 09:25:33
INDEX 01 09:27:33
TRACK 04 AUDIO
TITLE "close your eyes"
PERFORMER "蔡立儿"
FLAGS DCP
INDEX 00 14:52:73
INDEX 01 14:54:73
TRACK 05 AUDIO
TITLE "决裂边缘"
PERFORMER "太极"
FLAGS DCP
INDEX 00 18:38:13
INDEX 01 18:40:13
TRACK 06 AUDIO
TITLE "干一杯"
PERFORMER "叶倩文/林子祥"
FLAGS DCP
INDEX 00 23:39:10
INDEX 01 23:41:10
TRACK 07 AUDIO
TITLE "试问谁没错"
PERFORMER "陈百强"
FLAGS DCP
INDEX 00 28:45:08
INDEX 01 28:47:08
TRACK 08 AUDIO
TITLE "冬季来的女人"
PERFORMER "林忆莲/王杰"
FLAGS DCP
INDEX 00 33:07:03
INDEX 01 33:09:03
TRACK 09 AUDIO
TITLE "今生无悔"
PERFORMER "曾航生"
FLAGS DCP
INDEX 00 38:27:13
INDEX 01 38:29:13
TRACK 10 AUDIO
TITLE "曾在你怀抱"
PERFORMER "林珊珊/陈百强"
FLAGS DCP
INDEX 00 42:43:05
INDEX 01 42:45:05
TRACK 11 AUDIO
TITLE "重逢"
PERFORMER "叶倩文/林子祥"
FLAGS DCP
INDEX 00 47:01:28
INDEX 01 47:03:28
TRACK 12 AUDIO
TITLE "日夕回味"
PERFORMER "林珊珊"
FLAGS DCP
INDEX 00 50:39:60
INDEX 01 50:41:60
TRACK 13 AUDIO
TITLE "独醉之后"
PERFORMER "周启生"
FLAGS DCP
INDEX 00 55:20:58
INDEX 01 55:22:58
这一系列应该是香港华纳最鼎盛时期的作品了,楼主帮帮忙供点源让我等能顺利下完.先谢了!
好东西啊
PERFORMER "华纳群星"
TITLE "华纳白金经典"
FILE "华纳.-.[华纳白金经典全套.CD4].专辑.(APE).ape" WAVE
TRACK 01 AUDIO
TITLE "依然"
PERFORMER "林忆莲"
FLAGS DCP
INDEX 01 00:00:00
TRACK 02 AUDIO
TITLE "人在风雨中"
PERFORMER "王杰"
FLAGS DCP
INDEX 00 04:58:45
INDEX 01 05:00:45
TRACK 03 AUDIO
TITLE "珍重"
PERFORMER "叶倩文"
FLAGS DCP
INDEX 00 09:25:33
INDEX 01 09:27:33
TRACK 04 AUDIO
TITLE "close your eyes"
PERFORMER "蔡立儿"
FLAGS DCP
INDEX 00 14:52:73
INDEX 01 14:54:73
TRACK 05 AUDIO
TITLE "决裂边缘"
PERFORMER "太极"
FLAGS DCP
INDEX 00 18:38:13
INDEX 01 18:40:13
TRACK 06 AUDIO
TITLE "干一杯"
PERFORMER "叶倩文_林子祥"
FLAGS DCP
INDEX 00 23:39:10
INDEX 01 23:41:10
TRACK 07 AUDIO
TITLE "试问谁没错"
PERFORMER "陈百强"
FLAGS DCP
INDEX 00 28:45:08
INDEX 01 28:47:08
TRACK 08 AUDIO
TITLE "冬季来的女人"
PERFORMER "林忆莲_王杰"
FLAGS DCP
INDEX 00 33:07:03
INDEX 01 33:09:03
TRACK 09 AUDIO
TITLE "无悔今生"
PERFORMER "曾航生"
FLAGS DCP
INDEX 00 38:27:13
INDEX 01 38:29:13
TRACK 10 AUDIO
TITLE "曾在你怀抱"
PERFORMER "林姗姗_陈百强"
FLAGS DCP
INDEX 00 42:43:05
INDEX 01 42:45:05
TRACK 11 AUDIO
TITLE "重逢"
PERFORMER "叶倩文_林子祥"
FLAGS DCP
INDEX 00 47:01:28
INDEX 01 47:03:28
TRACK 12 AUDIO
TITLE "日夕回味"
PERFORMER "林姗姗"
FLAGS DCP
INDEX 00 50:39:60
INDEX 01 50:41:60
TRACK 13 AUDIO
TITLE "独醉之后"
PERFORMER "周启生"
FLAGS DCP
INDEX 00 55:20:58
INDEX 01 55:22:58
REN for XIAN
谢谢楼上的,本来没有注意到你的回复在自己改的,这下可省了好多事了!
好,谢谢分享。
华纳的精选支持一下!
华纳的精选全收了,谢谢楼主分享。