侯湘婷 -《同名专辑》[APE]

侯湘婷 -《同名专辑》[APE]
  • 片  名  侯湘婷 -《同名专辑》[APE]
  • 简  介  音乐风格: 流行发行时间: 1999年09月地区: 台湾语言: 普通话
  • 类  别  音乐
  • 小  类  华语音乐


  • 详细介绍简介: 专辑介绍:
    侯湘婷同名专辑是以每一首都是主打歌的高标准下,精心录制,力求再创 萧亚轩 林忆莲 专辑的好口碑,高销量。
    除了精选十首好歌,更有好制作人撑腰,动用了萧亚轩专辑幕后班底全员出动,相信绝对有最好的音乐流行度,比精选更精选,除此,又加入了新合作伙伴,林暐哲,金曲奖最受瞩目得制作人加入阵容,使专辑更添金味。
    以上引自互联网
  • 侯湘婷 -《同名专辑》[APE]_large

精选评论

V0.99 prebeta 4 from 23. January 2008

EAC 抓取日志档案从30. 四月 2009, 1:26

侯湘婷 / 为你流的泪

使用光碟机 :_NEC DVD_RW ND-3540A Adapter: 4 ID: 0

读取模式 : :
: 是
: 否
: 否

读取错误修正: : 48
读取 Lead-In 和 Lead-Out : 否
用静音填充抓取中丢失偏移的取样 : 是
去除首尾静音区块 : 否
: 否
: 已安装外部 ASPI 介面

所用输出模式: : Monkey's Audio Lossless Encoder
: High Lossless Compression
: 高
: 是
: C:Program FilesExact Audio Copymac.exe




| | | |
--------------------------------------------
1 | 0:00.00 | 3:52.20 | 0 | 17419
2 | 3:52.20 | 4:21.35 | 17420 | 37029
3 | 8:13.55 | 5:12.57 | 37030 | 60486
4 | 13:26.37 | 3:41.60 | 60487 | 77121
5 | 17:08.22 | 3:30.45 | 77122 | 92916
6 | 20:38.67 | 3:13.18 | 92917 | 107409
7 | 23:52.10 | 3:58.17 | 107410 | 125276
8 | 27:50.27 | 4:55.68 | 125277 | 147469
9 | 32:46.20 | 4:30.25 | 147470 | 167744
10 | 37:16.45 | 3:55.10 | 167745 | 185379


范围状态及错误

已选择范围

档案名称 I:cdimage.wav

峰值电平 100.0 %
范围质量 100.0 %
复制 CRC B56F9E2C
复制完成

没有错误发生




音轨 1
音轨 2
音轨 3
音轨 4
音轨 5
音轨 6
音轨 7
音轨 8
音轨 9
音轨 10



状态报告结尾
混入候选区,抢占位置。首先发言:
下载APE,再用千千静听转换成16KBPS的MP3。经济实惠。
好东西~收下了,谢谢LZ的分享
下过了,留个名。。。
好东西~收下了
哈哈。。我最爱的歌手之一。。

我是在她的歌声中长大的哦 ^ ^
对她的声音很迷....
thanks a lot !
消息很少了~她现在都在干嘛?
这张同名专辑非常不错的,侯湘婷这四张专辑都很好。
此贴要顶
可惜这小妮好久没发片了
感谢楼主分享!辛苦了,多谢!
初次……