Kenny Rogers -《The Best of Kenny Rogers》(Kenny Rogers 金曲精选)[APE]

Kenny Rogers -《The Best of Kenny Rogers》(Kenny Rogers 金曲精选)[APE]
  • 片  名  Kenny Rogers -《The Best of Kenny Rogers》(Kenny Rogers 金曲精选)[APE]
  • 简  介  Douban1797411:8.6(73 votes)音乐风格: 乡村发行时间: 1999年地区: 英国语言: 英语
  • 类  别  音乐
  • 小  类  欧美音乐


  • 详细介绍简介: 资源码率:727K APE
    发行公司:Castle Pulse
    专辑介绍:
    这张专辑是应ghd76同学的要求发的。09年我在曼城的HMV看中了这张专辑和《The 21 Number Ones of Kenny Rogers》,于是一起买下。相比另一张专辑,这张稍有逊色,但还是很不错的,不缺好听的Country music的,Ruby Don't Take Your Love To Town, She Even Woke Me Up To Say Goodbye, The King Of Oak Street, Tulsa Turnaround, A Poem For My Little Lady, Sleep Comes Easy(呃...是我喜欢的)。我这两张专辑加起来,Kenny Rogers的金曲应该都有了。国内还有一张,名字不记得了,是我买的第一张Kenny Rogers的专辑,不是很喜欢,但是被其中的Lady深深的吸引了,于是就有了这两张。
    非常郁闷的是,网上没有找到这张专辑的相关介绍,CD壳子也给我扔在了国内,没带英国来,我对乡村音乐也不是非常了解,很难深入分析,请谅解。
    对歌手的一些介绍还是必要的吧:
    Kenny Rogers,肯尼罗杰斯,1938年8月21日生于美国休斯顿。高中时期就喜欢弹弹唱唱 ,经常参加合唱团的演出。1968年,他与几位好友合组Kenny Rogers The First Edition乐团,相继以Just Dropped In (To See What Condition My Condition Was In和Ruby, Don’t Take Your Love To Town等二首畅销单曲成功崛起乐坛,可惜好景不常,乐团因财务问题,于1975年宣告解散。1977年,Kenny以乡村歌手之姿,冀望东山再起,一曲Lucille不仅获得Billboard单曲排行第五名的好成绩,更勇夺乡村歌曲榜冠军的位置,成为他个人身平第一张白金唱片,也正式宣告Kenny Rogers的年代来临。1980年,在Lionel Richi的跨刀写曲下,单曲Lady甫一推出即造成轰动,将他的事业推向最高峰,成为当时横跨流行与乡村排行上最成功的男歌手。发布说明:
    用Foobar直接从正版CD压APE,内建CUE文件。
    英国O2,8M带宽小水管,7天/24小时强力上传,期间会定期重启电脑(手提电脑,请谅解)。
    本人eMule以加载反吸血,请迅雷、Vagaa等吸血软件用户绕道。
  • Kenny Rogers -《The Best of Kenny Rogers》(Kenny Rogers 金曲精选)[APE]_large

精选评论

频谱
很棒,开车的时候听正合适!

非常、非常谢谢楼主!
非常感谢楼主的分享,十分感谢 !
非常感谢楼主这么好的资源的分享,十分感谢!
为甚麽这一款下不动呢?
貌似很多人不识货,先谢谢楼主
Cue档案下不了, 楼主能搅一搅吗??
期待老兄的继续更新,我一直在找这个了,以后我也要多找些这么有价值+的资源来分享!
等不了楼主的Cue档案, 自已弄了一个


PERFORMER "Kenny Rogers"
TITLE "Kenny Rogers - The.Best.of.Kenny.Rogers"
FILE "Kenny.Rogers.-.[The.Best.of.Kenny.Rogers].专辑.(APE).ape" WAVE
TRACK 01 AUDIO
TITLE "Reuben James"
INDEX 01 00:00:00
TRACK 02 AUDIO
TITLE "For The Good Times"
INDEX 00 02:45:00
INDEX 01 02:47:00
TRACK 03 AUDIO
TITLE "Ruby, Don't Take Your Lov"
INDEX 00 06:12:20
INDEX 01 06:14:00
TRACK 04 AUDIO
TITLE "She Even Woke Me Up To Sa"
INDEX 00 09:13:00
INDEX 01 09:15:00
TRACK 05 AUDIO
TITLE "Me & Bobby Mcghee"
INDEX 00 11:39:00
INDEX 01 11:41:00
TRACK 06 AUDIO
TITLE "But You Know I Love You"
INDEX 00 14:18:00
INDEX 01 14:20:00
TRACK 07 AUDIO
TITLE "King Of Oak Street"
INDEX 00 17:25:00
INDEX 01 17:27:00
TRACK 08 AUDIO
TITLE "Tulsa Turnaround"
INDEX 00 21:38:02
INDEX 01 21:40:02
TRACK 09 AUDIO
TITLE "Something's Burning"
INDEX 00 25:19:00
INDEX 01 25:21:00
TRACK 10 AUDIO
TITLE "A Poem For My Little Lady"
INDEX 00 29:17:00
INDEX 01 29:19:00
TRACK 11 AUDIO
TITLE "Tell It All Brother"
INDEX 00 31:56:00
INDEX 01 31:58:00
TRACK 12 AUDIO
TITLE "Always Leaving, Always Go"
INDEX 00 35:20:00
INDEX 01 35:22:00
TRACK 13 AUDIO
TITLE "I Believe In Music"
INDEX 00 37:46:00
INDEX 01 37:48:00
TRACK 14 AUDIO
TITLE "Sleep Come Easy"
INDEX 00 41:54:05
INDEX 01 41:56:00
TRACK 15 AUDIO
TITLE "Heed The Call"
INDEX 00 44:53:00
INDEX 01 44:55:00
TRACK 16 AUDIO
TITLE "Sunshine"
INDEX 00 48:12:00
INDEX 01 48:14:00
TRACK 17 AUDIO
TITLE "My Washington Woman"
INDEX 00 51:27:00
INDEX 01 51:29:00
TRACK 18 AUDIO
TITLE "Trying Just As Hard"
INDEX 00 54:53:00
INDEX 01 54:55:00
TRACK 19 AUDIO
TITLE "Where Does Rosie Go?"
INDEX 00 57:13:00
INDEX 01 57:15:00
TRACK 20 AUDIO
TITLE "Calico Silver "
INDEX 00 59:25:00
INDEX 01 59:27:00
频谱15--18k
CUE应该没问题了,忘了开上传了,不好意思。