《旋风管家广播剧》(Hayate the combat butler)[Drama CD 1~2][白皇学院生徒会校内放送][附BK][APE]

《旋风管家广播剧》(Hayate the combat butler)[Drama CD 1~2][白皇学院生徒会校内放送][附BK][APE]
  • 片  名  《旋风管家广播剧》(Hayate the combat butler)[Drama CD 1~2][白皇学院生徒会校内放送][附BK][APE]
  • 简  介  发行时间: 2009年02月25日对白语言: 日语文字语言: 日文
  • 类  别  动漫
  • 小  类  动漫周边


  • 详细介绍简介: 【动画介绍】
    由于父母的关系而背负了1亿5千万円的可怜的主人公绫崎飒,在圣诞夜走投无路下,他妄图绑架附近公园的少女换取赎金,冲过去就对少女说“我……需要你(当人质,当然这后面3个字还没出口)”,阴差阳错再加层层误会之下,飒反倒成了少女的救命恩人。怎知这位少女正是三千院财阀大小姐,为了报答救命之恩她偿还了飒的债务。为了报答大小姐的恩情,飒成为了三千院家的管家,认真的工作来偿还这笔“债务”于是,绫崎飒的管家生活就此开始……
    【专辑介绍】
    「ハヤテのごとく!」白皇学院生徒会校内放送CD 1
    ドラマCD 商品番号: GNCA-1177
    メディア: アルバムCD
    组枚数: 1
    発売日: 2009/02/25
    価格: 2625円(税込)
    内容
    原作: 畑健次郎――「週刊少年サンデー」连载中の大ヒット作! ようやく详细が见えてきた第2期の前にお驯染みのメンバーがCDで登场!! その第1弾は、白皇学院生徒会の校内放送を収録した仮想DJ形式ドラマCD!! 「2○」ばりに、リアルタイムで进行予定、ご自宅でも白皇学院の生徒になった気分を味わえるはず!? アニソン・カバー・キャラソンとしてナギ マリアによる「トップをねらえ! ~Fly High~」を収録。
    【Artist Cast】
    矢作纱友里 (アーティスト) 中尾衣里 (アーティスト) 
    浅野真澄 (アーティスト) 白石凉子 (アーティスト) 
    钉宫理恵 (アーティスト) 伊藤静 (アーティスト) 
    三千院ナギ マリア starring 钉宫理恵 田中理恵 (アーティスト) 松宫恭子 (作词者) 
    田中公平 (作曲者) 泽口和彦 (编曲者) 
    【收录曲目】
    1. 时报/ 矢作纱友里
    2. オープニング~番组クレジット/ 矢作纱友里
    3. CM ~レンタルビデオ・タチバナ~/ 矢作纱友里
    4. ダウントカウン!第10位/ 矢作纱友里
    5. ダウントカウン!第9位/ 矢作纱友里
    6. 中継 ~ゲスト控室~/ 矢作纱友里
    7. CM ~カラオケBOX マイヒメ~/ 矢作纱友里
    8. ダウントカウン!第8位/ 矢作纱友里
    9. ダウントカウン!第7位/ 矢作纱友里
    10. ダウントカウン!第11位/ 矢作纱友里
    11. ダウントカウン!第12位/ 矢作纱友里
    12. ダウントカウン!第13位/ 矢作纱友里
    13. CM ~朝风さん家の神社~/ 矢作纱友里
    14. ゲストの登场だ!/ 矢作纱友里
    15. ダウントカウン!第14位/ 矢作纱友里
    16. 今週の特集 ~キャラクターカバーCD(ゲスト:綾崎ハヤテさん、三千院ナギさん)~/ 矢作纱友里
    17. トップをねらえ! ~Fly High~/ 三千院ナギ マリア starring 钉宫理恵 田中理恵
    18. 瀬川泉の「昼休みにみた!」/ 矢作纱友里
    19. CM ~喫茶 どんぐり~/ 矢作纱友里
    20. ダウントカウン!第15位/ 矢作纱友里
    21. ダウントカウン!第16位/ 矢作纱友里
    22. CM ~デスニーズ野方店~/ 矢作纱友里
    23. ハプニング!谜の携帯メール!/ 矢作纱友里
    24. ダウントカウン!第17位/ 矢作纱友里
    25. ダウントカウン!第6位/ 矢作纱友里
    26. エンディングっぽい/ 矢作纱友里 【专辑介绍】
    「ハヤテのごとく!」白皇学院生徒会校内放送CD 2
    ドラマCD 商品番号: GNCA-1178
    メディア: アルバムCD
    组枚数: 1
    発売日: 2009/03/25
    価格: 2625円(税込)
    内容
    原作: 畑健次郎――「週刊少年サンデー」连载中の大ヒット作! OVA発売、そして第2期シリーズを目前に、お驯染みのメンバーがCDで登
  • 《旋风管家广播剧》(Hayate the combat butler)[Drama CD 1~2][白皇学院生徒会校内放送][附BK][APE]_large

精选评论

驼下来练日语听力蛮好的,呵呵
好东西,超支持的说
某种意义上此物算不上正统的广播剧= =
很多部分都素对第1季的角色歌的人气评比介绍= =

PS:会长力量果然强大~~~

继漫画第2次人气评比恐怖获胜后,角色歌方面也素继续第一~
我就是喜欢旋风管家的广播剧,因为我是声优控,不过内容也不错嘛~
好东西啊
TITLE "「ハヤテのごとく!」白皇学院生徒会校内放送CD2"
FILE "白皇学院生徒会校内放送 CD2.ape" WAVE
TRACK 01 AUDIO
TITLE "时报"
PERFORMER " "
ISRC JPPI00952350
INDEX 01 00:00:00
TRACK 02 AUDIO
TITLE "オープニング~番组クレジット"
PERFORMER " "
ISRC JPPI00952360
INDEX 01 00:10:20
TRACK 03 AUDIO
TITLE "CM ~アミューズメントGAME ARASHI~"
PERFORMER " "
ISRC JPPI00952370
INDEX 01 01:35:47
TRACK 04 AUDIO
TITLE "ダウントカウン!第18位~第21位"
PERFORMER " "
ISRC JPPI00952380
INDEX 01 03:13:26
TRACK 05 AUDIO
TITLE "CM ~メイドカフェ ひまわり~"
PERFORMER " "
ISRC JPPI00952390
INDEX 01 05:18:54
TRACK 06 AUDIO
TITLE "ゲストLIVE ~リハーサル~"
PERFORMER " "
ISRC JPPI00952400
INDEX 01 06:25:13
TRACK 07 AUDIO
TITLE "ダウントカウン!第21位&第22位"
PERFORMER " "
ISRC JPPI00952410
INDEX 01 08:37:67
TRACK 08 AUDIO
TITLE "思いつき新コーナー"
PERFORMER " "
ISRC JPPI00952420
INDEX 01 09:55:61
TRACK 09 AUDIO
TITLE "CM ~野方水族馆~"
PERFORMER " "
ISRC JPPI00952430
INDEX 01 14:38:54
TRACK 10 AUDIO
TITLE "ダウントカウン!第5位"
PERFORMER " "
ISRC JPPI00952440
INDEX 01 16:23:72
TRACK 11 AUDIO
TITLE "ダウントカウン!第4位"
PERFORMER " "
ISRC JPPI00952450
INDEX 01 17:43:39
TRACK 12 AUDIO
TITLE "ゲストLIVE ~本番~"
PERFORMER " "
ISRC JPPI00952460
INDEX 01 19:35:27
TRACK 13 AUDIO
TITLE "二人の「ごめんね」"
PERFORMER " "
ISRC JPPI00952470
INDEX 00 20:38:63
INDEX 01 20:39:09
TRACK 14 AUDIO
TITLE " ダウントカウン!第23位&第24位"
PERFORMER " "
ISRC JPPI00952480
INDEX 00 25:01:05
INDEX 01 25:02:54
TRACK 15 AUDIO
TITLE "CM ~银杏商店街~"
PERFORMER " "
ISRC JPPI00952490
INDEX 01 27:24:08
TRACK 16 AUDIO
TITLE "ダウントカウン!第3位"
PERFORMER " "
ISRC JPPI00952500
INDEX 01 29:24:00
TRACK 17 AUDIO
TITLE "ダウントカウン!第2位"
PERFORMER " "
ISRC JPPI00952510
INDEX 01 32:57:36
TRACK 18 AUDIO
TITLE "ダウントカウン!第1位"
PERFORMER " "
ISRC JPPI00952520
INDEX 01 34:59:02
TRACK 19 AUDIO
TITLE "エンディング"
PERFORMER " "
ISRC JPPI00952530
INDEX 01 37:05:38 PERFORMER一项我空着没填...因为出场人物不一样...大家自己听着写吧.
我刚听了一下...发现这CUE的默认时间不太对劲吧?....明显的把人物的声音也切断了嘛.....怎么回事..