《水果篮子 原声CD》(Fruits Basket)[岡崎律子][For フルーツバスケット][FLAC]

《水果篮子 原声CD》(Fruits Basket)[岡崎律子][For フルーツバスケット][FLAC]
  • 片  名  《水果篮子 原声CD》(Fruits Basket)[岡崎律子][For フルーツバスケット][FLAC]
  • 简  介  发行时间: 2001年07月25日对白语言: 日语
  • 类  别  动漫
  • 小  类  动漫周边


  • 详细介绍中文名: 水果篮子 原声CD英文名: Fruits Basket别名: フルーツバスケット版本: [岡崎律子][For フルーツバスケット][FLAC]发行时间: 2001年07月25日地区: 日本对白语言: 日语简介:
    【专辑介绍】:
    アニメ「フルーツバスケット」オープニングテーマFor フルーツバスケット
    商品番号: KICM-3014
    メディア: シングル CD
    組枚数: 1
    発売日: 2001/07/25
    価格: 1020円(税込)
    アーティスト/ キャスト
    岡崎律子 (アーティスト)  村山達哉 (編曲者) 
    内容
    7月よりテレビ東京系6局ネットで放送される、新番組「フルーツバスケット」のオープニング・エンディングテーマシングル。ソングライティングには定評のある岡崎律子が詞曲のみならず、今作品では歌も担当。アニメの雰囲気をとても大切にした楽曲。
    【专辑曲目】:
    1. For フルーツバスケット
    2. 小さな祈り
    3. For フルーツバスケット(instrumental ver.)
    4. 小さな祈り(instrumental ver.)
    ☆★☆★☆★☆特集 コメディ/ファンタジー/ロマンス/スポーツ フルーツバスケット☆★☆★☆★☆
    フルーツバスケット
    STORY
    「花とゆめ」で人気の お茶の間ほのぼの系コミカル学園ラブラブちょっとふしぎ物語 。ヒロインは、わけあってテントで一人暮らし中だった女子高生、本田透。透はひょんなことから同級生の男の子、草摩由希(そうま ゆき)の家に住み込むことになる。全校女子のアイドル由希と、保護者役の草摩紫呉との生活は、一見ごく普通の家庭のように見えたのだが・・・。草摩家に隠された重大なヒミツ!なんと彼らは異性に抱きつかれると・・・ ?
    【服务器】:Popgo Anime Server ed2k://|server|61.145.112.13|3721|/
    【共享时间】:7*23 除计划关机和断电外一般开机
    负责声明:上傳量為檔案大小10倍時撤發布級別,保證有源一個月,過期刻盤備份,待貼自然死亡。
  • 《水果篮子 原声CD》(Fruits Basket)[岡崎律子][For フルーツバスケット][FLAC]_large

精选评论

,谢谢楼主.
PERFORMER "岡崎律子"
TITLE "For フルーツバスケット"
FILE "CDImage.flac" WAV
TRACK 01 AUDIO
TITLE "For フルーツバスケット"
PERFORMER "岡崎律子"
ISRC JPKI00128140
INDEX 01 00:00:00
TRACK 02 AUDIO
TITLE "小さな祈り"
PERFORMER "岡崎律子"
ISRC JPKI00128150
INDEX 00 04:21:07
INDEX 01 04:24:07
TRACK 03 AUDIO
TITLE "For フルーツバスケット(instrumental ver.)"
PERFORMER "岡崎律子"
ISRC JPKI00128149
INDEX 00 07:43:20
INDEX 01 07:46:57
TRACK 04 AUDIO
TITLE "小さな祈り(instrumental ver.)"
PERFORMER "岡崎律子"
ISRC JPKI00128159
INDEX 00 12:08:32
INDEX 01 12:11:32
还差一个E啊!!!
喜欢啊
FILE "CDImage.flac" WAVE
少了后面的E
我才知道律子已经去世了....特地来下她的水果篮子OP缅怀.......
和楼上一样
可以不可以补个mp3的源,因为实在不知道怎么整这个格式的歌,但是很缅怀这张专辑。
这个还能下么 还能下么 还能下么嘛!
缅怀律子姐姐。
( ⊙o⊙ )哇,这个一定要下~~
水果篮子的OP,必收。。。实在太治愈了。。。旋律大爱。。。多谢LZ提供无损资源。。。
喜欢!!!
支持中~~ 缅怀中。。。。。。
哎~~ 听了~~谢谢楼主~~